设为首页收藏本站

琵琶行论坛

 找回密码
 注册
查看: 326|回复: 5

[转帖] [海底两万里][1-39][BDrip MP4][1440*1080][日语中字][59.4g]

[复制链接]

签到天数: 1 天

[LV.1]初来乍到

发表于 2012-2-17 07:11:35 | 显示全部楼层 |阅读模式



ふしぎの海のナディア Blu-ray BOX【完全生産限定版】
形式: Color, Dolby, Limited Edition
言語 日本語
ディスク枚数: 7
販売元: キングレコード
DVD発売日: 2011/11/23
時間: 1040 分
ASIN: B005FYEJ1C

内容紹介
庵野秀明、樋口真嗣、貞本義行、鷺巣詩郎等が参加、『新世紀エヴァンゲリオン』の原点ともいえる不朽の名作が、オリジナル35ミリネガからのHDテレシネで甦ります。(*一部オリジナルネガが現存しない箇所に関してはSDマスタ-からのアップコン対応となります。)

時は、1889年。花の都パリでは、万国博覧会が華やかに開催されていた。世界中の科学や文化の粋が集まったそのイベントに、人々は来たるべき20世紀、科学万能の時代の到来を予感し、夢見ていた…。そんな科学の進歩は地球を急激に狭くしつつあったが、まだまだ未知なるロマンと冒険があふれた時代でもあった。
そんな中、世界中の海で謎の巨大生物“海獣”が出没し人々を恐怖に陥れていた。その海獣によって父親が行方不明になってしまった発明好きの少年・ジャンは、万国博覧会の会場で謎の少女・ナディアに出会う。ナディアに一目ぼれしたジャンは、ひょんなことからナディアとともに冒険へと旅立つことに――。
彼らを待ちうける運命とはいったい?

ふしぎの海のナディア Blu-ray BOX【完全生産限定版】 仕様:カラー/1080p Hi-Def/AVC /BD50G/片面2層
音 声:日本語(リニアPCM/STEREO)
収録話数:
[DISC1]1~6話
[DISC2]7~12話
[DISC3]13~18話
[DISC4]19~24話
[DISC5]25~30話
[DISC6]31~36話
[DISC7]37~39話+特典映像(ナディアおまけ劇場その一~十 他)
パッケージ仕様:貞本義行描き下ろしBOXアート/豪華BOX仕様
封入特典:豪華ブックレット(100P予定)


http://anidb.net/a40
------------------------------------------------------------------------------------------------------------------------------------
信息:
------------------------------------------------------------------------------------------------------------------------------------
片名: Fushigi no Umi no Nadia
别名: Nadia: Secret of Blue Water / ふしぎの海のナディア
类型: TV Series, 39 episodes
年代: 13.04.1990 till 12.04.1991
分类: Adventure , Conspiracy , Romance , Sci-Fi
链接: Allcinema , ANN , Official page (jp) , Wiki (en) , Wiki (jp) , AnimeNfo , MAL , MAL(2) , VNDB
评分: 8.02 (832)

------------------------------------------------------------------------------------------------------------------------------------
主役声优:
------------------------------------------------------------------------------------------------------------------------------------
. Hidaka Noriko .......... Jean Rocque Raltique
. Mizutani Yuuko .......... Marie en Carlsberg
. Takamori Yoshino .......... Nadia La Arwall
. Ootsuka Akio .......... Eleusis La Arwall
. Takizawa Kumiko .......... Grandis Granva
. Horiuchi Ken`yuu .......... Sanson

------------------------------------------------------------------------------------------------------------------------------------
主要职员:
------------------------------------------------------------------------------------------------------------------------------------
. >Original Plan: .......... Jules Verne
. >Chief Direction: .......... Anno Hideaki
. Direction (監督): .......... Higuchi Shinji
. Character Design (キャラクターデザイン) : .......... Sadamoto Yoshiyuki
. Music (音楽): .......... Sagisu Shirou
. Animation Work (アニメーション制作): .......... Toho
. >Work: .......... Kubota Hiroshi

------------------------------------------------------------------------------------------------------------------------------------
内容概要:
------------------------------------------------------------------------------------------------------------------------------------
The Industrial Revolution has taken over and the world is being consumed by new technology and machines. A young scientist, Jean, sees a beautiful young girl with dark skin while in France. He follows her to only find trouble; a woman and two thugs are after an amulet in the girl's possession called Blue Water. Jean helps the girl escape and learns that her name is Nadia. From then on, the two join forces to evade the minions of a man named Gargoyle, who wants Nadia's Blue Water to bring forth an armageddon. 复制内容到剪贴板 代码:C:\Documents and Settings\Administrator\My Documents\ceo007@ktxp-[アニメ BD] ふしぎの海のナディア 第02話 「第2回 小さな逃亡者」 (1440x1080 H.264/AVC AAC).mp4
General
Complete name : C:\Documents and Settings\Administrator\My Documents\ceo007@ktxp-[アニメ BD] ふしぎの海のナディア 第02話 「第2回 小さな逃亡者」 (1440x1080 H.264/AVC AAC).mp4
Format : MPEG-4
Format profile : Base Media
Codec ID : isom
File size : 1.62 GiB
Duration : 25mn 2s
Overall bit rate : 9 269 Kbps
Encoded date : UTC 2011-11-26 04:27:18
Tagged date : UTC 2011-11-26 04:27:18
Writing application : encode by iLllS3UoTS
Video #1
ID : 1
Format : AVC
Format/Info : Advanced Video Codec
Format profile : High@L4.2
Format settings, CABAC : Yes
Format settings, ReFrames : 3 frames
Format settings, GOP : M=3, N=16
Codec ID : avc1
Codec ID/Info : Advanced Video Coding
Duration : 25mn 2s
Bit rate mode : Variable
Bit rate : 9 009 Kbps
Maximum bit rate : 40.0 Mbps
Width : 1 440 pixels
Height : 1 080 pixels
Display aspect ratio : 4:3
Frame rate mode : Constant
Frame rate : 23.976 fps
Color space : YUV
Chroma subsampling : 4:2:0
Bit depth : 8 bits
Scan type : Progressive
Bits/(Pixel*Frame) : 0.242
Stream size : 1.58 GiB (97%)
Writing library : x264 core 119 [Rev.2106M-1]64bit
Encoding settings : cabac=1 / ref=3 / deblock=1:-1:-1 / analyse=0x3:0x113 / me=umh / subme=11 / psy=1 / fade_compensate=0.90 / psy_rd=1.05:0.20 / mixed_ref=1 / me_range=32 / chroma_me=1 / trellis=2 / 8x8dct=1 / cqm=0 / deadzone=21,11 / fast_pskip=1 / chroma_qp_offset=-3 / threads=12 / sliced_threads=0 / nr=0 / decimate=1 / interlaced=0 / bluray_compat=1 / constrained_intra=0 / fgo=0 / bframes=3 / b_pyramid=1 / b_adapt=2 / b_bias=0 / direct=3 / weightb=1 / open_gop=0 / weightp=0 / keyint=240 / keyint_min=2 / scenecut=75 / intra_refresh=0 / rc_lookahead=40 / rc=crf / mbtree=1 / crf=18.5 / qcomp=0.60 / qpmin=12 / qpmax=51 / qpstep=8 / vbv_maxrate=40000 / vbv_bufsize=30000 / crf_max=0.0 / nal_hrd=vbr / ip_ratio=1.40 / aq=1:1.05
Encoded date : UTC 2011-11-25 20:05:11
Tagged date : UTC 2011-11-26 04:27:35
Color primaries : BT.709-5, BT.1361, IEC 61966-2-4, SMPTE RP177
Transfer characteristics : BT.709-5, BT.1361
Matrix coefficients : BT.709-5, BT.1361, IEC 61966-2-4 709, SMPTE RP177
Audio #2
ID : 2
Format : AAC
Format/Info : Advanced Audio Codec
Format version : Version 4
Format profile : LC
Format settings, SBR : No
Codec ID : 40
Duration : 25mn 2s
Bit rate mode : Variable
Bit rate : 256 Kbps
Maximum bit rate : 262 Kbps
Channel(s) : 2 channels
Channel positions : Front: L R
Sampling rate : 48.0 KHz
Stream size : 45.9 MiB (3%)
Title : original_2ch
Language : Japanese
Encoded date : UTC 2011-11-26 04:27:34
Tagged date : UTC 2011-11-26 04:27:35
Menu
00:00:00.000 : 僆乕僾僯儞僌
00:01:23.541 : 慜夞傑偱偺偁傜偡偠
00:02:06.460 : A僷乕僩
00:12:01.513 : B僷乕僩
00:23:54.141 : 僄儞僨傿儞僌

















下载地址
http://kuai.xunlei.com/d/AMHVMXSGNABZ
http://kuai.xunlei.com/d/APPQWGIHUOAA
头像被屏蔽

签到天数: 1 天

[LV.1]初来乍到

发表于 2012-3-15 16:30:40 | 显示全部楼层
提示: 作者被禁止或删除 内容自动屏蔽
回复 支持 反对

使用道具 举报

签到天数: 2 天

[LV.1]初来乍到

发表于 2014-4-29 10:18:15 | 显示全部楼层
经典不容错过
回复 支持 反对

使用道具 举报

该用户从未签到

发表于 2015-1-22 08:38:11 | 显示全部楼层


迅雷快传 - 抱歉,您下载的链接已失效!

回复 支持 反对

使用道具 举报

签到天数: 971 天

[LV.10]以坛为家III

发表于 2015-3-3 14:28:49 | 显示全部楼层
可惜,链接已失效
回复 支持 反对

使用道具 举报

该用户从未签到

发表于 2015-9-18 08:35:37 | 显示全部楼层
huhu不可能错过你
回复 支持 反对

使用道具 举报

您需要登录后才可以回帖 登录 | 注册

本版积分规则

小黑屋|手机版|Archiver|琵琶行论坛 ( 赣ICP备12000882号  

GMT+8, 2017-11-22 09:48 , Processed in 0.024077 second(s), 10 queries , Gzip On, MemCache On.

Powered by Discuz! X3.3

© 2001-2017 Comsenz Inc.

快速回复 返回顶部 返回列表